<?xml version="1.0" standalone="no"?>
<!DOCTYPE svg PUBLIC "-//W3C//DTD SVG 1.1//EN" "http://www.w3.org/Graphics/SVG/1.1/DTD/svg11.dtd">
<svg xmlns="http://www.w3.org/2000/svg">
<defs >
<font id="DMSans" horiz-adv-x="559" ><font-face
    font-family="DM Sans Medium"
    units-per-em="1000"
    panose-1="0 0 0 0 0 0 0 0 0 0"
    ascent="992"
    descent="-310"
    alphabetic="0" />
<glyph unicode=" " glyph-name="space" horiz-adv-x="252" />
<glyph unicode="!" glyph-name="exclam" horiz-adv-x="272" d="M89 207L77 700H191L179 207H89ZM137 -6Q106 -6 87 13T67 60Q67 88 86 107T137 127Q166 127 185 108T205 60Q205 33 186 14T137 -6Z" />
<glyph unicode="&quot;" glyph-name="quotedbl" horiz-adv-x="316" d="M195 552L183 755H278L267 552H195ZM49 552L38 755H133L122 552H49Z" />
<glyph unicode="#" glyph-name="numbersign" horiz-adv-x="837" d="M143 0L182 186H39V281H203L236 435H87V530H256L296 714H396L356 530H558L598 714H698L659 530H793V435H638L605 281H745V186H585L545 0H445L485 186H283L243 0H143ZM303 281H505L538 435H336L303 281Z" />
<glyph unicode="$" glyph-name="dollar" horiz-adv-x="588" d="M260 -87V-10Q162 1 103 59T43 211H155Q156 164 183 129T260 81V322Q252 324 244 327T226 333Q145 360 105 403T64 516Q63 598 117 650T260 711V791H328V710Q415 700 468 647T522 514H410Q409 547
389 576T328 617V403Q336 400 344 398T360 392Q412 375 453 351T518 288T543 189Q543 139 519 96T447 23T328 -11V-87H260ZM174 525Q174 485 197 464T260 426V620Q222 613 198 589T174 525ZM431 182Q431 231 402 256T328 299V79Q377 85 404 113T431 182Z" />
<glyph unicode="%" glyph-name="percent" horiz-adv-x="823" d="M206 366Q159 366 122 387T62 446T40 539Q40 592 62 630T122 690T207 711Q253 711 290 690T350 631T372 539Q372 485 350 447T291 387T206 366ZM156 0L557 700H661L261 0H156ZM206 442Q238 442 261
466T285 539Q285 587 262 611T206 636Q174 636 150 612T126 539Q126 491 149 467T206 442ZM617 -12Q570 -12 533 9T473 68T451 161Q451 214 473 253T533 313T618 334Q664 334 701 313T761 253T783 161Q783 107 761 69T702 9T617 -12ZM617 65Q649 65 672 89T696
161Q696 209 673 233T617 258Q585 258 561 234T537 161Q537 113 560 89T617 65Z" />
<glyph unicode="&amp;" glyph-name="ampersand" horiz-adv-x="752" d="M287 -12Q212 -12 157 14T70 89T39 201Q39 271 78 326T195 414Q163 450 149 482T135 552Q135 621 185 666T324 712Q382 712 424 690T488 631T509 547H406Q407 587 382 608T323 629Q284 629
261 608T238 553Q238 524 254 496T305 433L513 224Q538 262 567 314L593 363H703L663 290Q622 210 582 156L738 0H608L523 85Q471 34 414 11T287 -12ZM142 207Q142 151 182 114T289 77Q338 77 378 94T456 152L257 351Q199 327 171 291T142 207Z" />
<glyph unicode="&apos;" glyph-name="quotesingle" horiz-adv-x="173" d="M50 552L38 755H135L123 552H50Z" />
<glyph unicode="(" glyph-name="parenleft" horiz-adv-x="386" d="M244 -145Q188 -91 144 -19T73 142T46 333Q46 435 72 523T143 684T244 811H350V801Q260 708 206 588T151 333Q151 198 205 78T351 -135V-145H244Z" />
<glyph unicode=")" glyph-name="parenright" horiz-adv-x="386" d="M35 -145V-135Q125 -42 180 78T235 333Q235 468 181 588T36 801V811H142Q197 757 242 685T313 524T340 333Q340 231 314 143T242 -18T142 -145H35Z" />
<glyph unicode="*" glyph-name="asterisk" horiz-adv-x="492" d="M208 360L224 507L106 420L64 492L200 549L65 604L104 674L225 587L208 735H288L271 587L391 674L429 605L294 548L430 492L389 421L271 507L287 360H208Z" />
<glyph unicode="+" glyph-name="plus" horiz-adv-x="590" d="M60 246V335H249V512H341V335H530V246H341V68H249V246H60Z" />
<glyph unicode="," glyph-name="comma" horiz-adv-x="204" d="M8 -118L66 118H171L79 -118H8Z" />
<glyph unicode="-" glyph-name="hyphen" horiz-adv-x="520" d="M313 246V335H720V246H313Z" />
<glyph unicode="." glyph-name="period" horiz-adv-x="217" d="M109 -6Q79 -6 60 13T40 60Q40 88 59 107T109 127Q139 127 158 108T177 60Q177 33 158 14T109 -6Z" />
<glyph unicode="/" glyph-name="slash" horiz-adv-x="406" d="M26 -103L276 771H380L129 -103H26Z" />
<glyph unicode="0" glyph-name="zero" horiz-adv-x="702" d="M351 -12Q256 -12 188 33T83 160T46 350Q46 458 82 539T187 666T351 712Q446 712 514 667T618 540T655 350Q655 242 619 161T514 34T351 -12ZM351 83Q408 83 452 115T522 207T547 350Q547 433 522 493T453
585T351 617Q293 617 249 585T180 493T155 350Q155 267 180 207T249 115T351 83Z" />
<glyph unicode="1" glyph-name="one" horiz-adv-x="324" d="M143 0V580L30 554V632L185 700H253V0H143Z" />
<glyph unicode="2" glyph-name="two" horiz-adv-x="572" d="M57 0V76Q125 130 187 185T297 293T374 398T402 498Q402 530 391 558T355 604T288 622Q225 622 194 582T163 486H60Q61 560 91 610T173 686T290 712Q389 712 448 657T508 502Q508 443 480 385T406 274T308
173T209 88H529V0H57Z" />
<glyph unicode="3" glyph-name="three" horiz-adv-x="592" d="M295 -12Q227 -12 172 12T83 87T48 212H153Q155 156 191 118T295 79Q359 79 393 114T427 203Q427 267 382 298T270 329H218V417H271Q330 417 366 445T403 524Q403 567 375 594T294 621Q240 621 209
590T175 511H70Q72 572 100 617T179 687T294 712Q364 712 411 688T483 622T508 531Q508 475 477 433T394 377Q454 364 493 319T532 201Q532 143 505 95T425 17T295 -12Z" />
<glyph unicode="4" glyph-name="four" horiz-adv-x="623" d="M390 0V140H39V224L373 700H495V232H593V140H495V0H390ZM154 232H396V583L154 232Z" />
<glyph unicode="5" glyph-name="five" horiz-adv-x="616" d="M315 -12Q241 -12 187 14T102 87T63 193H167Q177 143 217 111T316 78Q360 78 392 99T442 157T460 238Q460 309 420 351T319 394Q267 394 230 370T176 308H75L135 700H513V607H215L179 420Q202 446 242
463T334 481Q405 481 456 449T534 361T562 239Q562 169 532 112T447 22T315 -12Z" />
<glyph unicode="6" glyph-name="six" horiz-adv-x="632" d="M328 -12Q251 -12 198 17T113 94T66 202T52 325Q52 441 84 528T178 663T326 712Q395 712 444 685T520 613T554 515H455Q446 567 412 595T325 623Q252 623 205 555T154 344Q178 388 228 419T345 450Q404
450 455 422T539 344T572 224Q572 163 542 109T458 22T328 -12ZM322 80Q364 80 397 98T449 147T468 219Q468 283 427 321T321 359Q279 359 246 340T193 290T174 220Q174 179 193 148T246 98T322 80Z" />
<glyph unicode="7" glyph-name="seven" horiz-adv-x="534" d="M120 0L391 609H27V700H500V623L231 0H120Z" />
<glyph unicode="8" glyph-name="eight" horiz-adv-x="620" d="M310 -12Q240 -12 184 13T94 85T60 193Q60 256 95 306T190 374Q137 395 108 435T79 525Q79 576 106 618T184 686T310 712Q384 712 435 687T514 619T541 525Q541 477 512 436T429 374Q488 355 523 306T559
193Q559 131 526 85T437 14T310 -12ZM310 408Q368 408 401 438T435 515Q435 568 402 596T310 624Q251 624 218 596T185 515Q185 468 218 438T310 408ZM310 78Q382 78 418 112T454 201Q454 261 416 293T310 326Q243 326 204 294T165 201Q165 147 201 113T310 78Z"
/>
<glyph unicode="9" glyph-name="nine" horiz-adv-x="632" d="M306 -12Q237 -12 188 15T112 87T78 185H177Q186 133 220 105T307 77Q380 77 427 145T478 356Q454 312 404 281T287 250Q228 250 176 278T92 356T60 476Q60 537 90 591T174 678T304 712Q381 712 434
683T519 606T565 498T580 375Q580 259 548 172T454 37T306 -12ZM311 341Q353 341 386 360T438 410T458 480Q458 521 439 552T386 602T310 620Q268 620 235 602T183 553T163 481Q163 417 205 379T311 341Z" />
<glyph unicode=":" glyph-name="colon" horiz-adv-x="220" d="M109 -6Q79 -6 60 13T40 60Q40 88 59 107T109 127Q139 127 158 108T177 60Q177 33 158 14T109 -6ZM109 375Q79 375 60 394T40 441Q40 469 59 488T109 508Q139 508 158 489T177 441Q177 414 158 395T109 375Z" />
<glyph unicode=";" glyph-name="semicolon" horiz-adv-x="245" d="M133 375Q103 375 84 394T64 441Q64 469 83 488T133 508Q163 508 182 489T201 441Q201 414 182 395T133 375ZM23 -118L81 118H186L94 -118H23Z" />
<glyph unicode="&lt;" glyph-name="less" horiz-adv-x="510" d="M303 135L69 363L303 591H437L202 363L437 135H303Z" />
<glyph unicode="=" glyph-name="equal" horiz-adv-x="534" d="M61 352V444H472V352H61ZM61 137V229H472V137H61Z" />
<glyph unicode="&gt;" glyph-name="greater" horiz-adv-x="510" d="M73 135L308 363L73 591H207L441 363L207 135H73Z" />
<glyph unicode="?" glyph-name="question" horiz-adv-x="521" d="M144 207L140 370H178Q232 370 277 380T350 419T378 505Q378 560 344 591T255 623Q198 623 165 592T132 508H32Q31 568 58 614T136 686T255 712Q321 712 372 687T451 616T480 504Q480 433 449 388T364
321T240 299L237 207H144ZM191 -6Q160 -6 141 13T122 60Q122 88 141 107T191 127Q220 127 239 108T259 60Q259 33 240 14T191 -6Z" />
<glyph unicode="@" glyph-name="at" horiz-adv-x="1030" d="M437 -206Q328 -206 247 -164T120 -46T74 135Q74 244 112 337T219 500T381 608T585 647Q699 647 782 604T910 484T956 307Q956 248 941 192T898 92T828 21T732 -6Q681 -6 653 18T618 85Q588 42 542 18T442
-6Q367 -6 325 39T282 163Q282 218 299 268T348 358T423 421T520 444Q617 444 647 367L659 433H747L699 157Q692 116 702 91T747 65Q778 65 801 87T840 144T864 220T872 302Q872 429 793 501T573 574Q484 574 408 541T276 449T189 312T158 144Q158 13 237 -59T453
-132Q497 -132 540 -123T622 -97L639 -167Q547 -206 437 -206ZM475 73Q514 73 547 94T601 153T626 239Q631 291 606 328T527 365Q481 365 447 338T395 269T377 180Q377 132 401 103T475 73Z" />
<glyph unicode="A" glyph-name="A" horiz-adv-x="683" d="M26 0L284 700H400L656 0H544L484 171H198L138 0H26ZM228 255H454L341 574L228 255Z" />
<glyph unicode="B" glyph-name="B" horiz-adv-x="617" d="M71 0V700H335Q444 700 500 649T556 521Q556 454 520 415T433 361Q473 353 504 329T554 269T572 191Q572 137 546 94T468 25T343 0H71ZM177 400H322Q383 400 415 428T447 507Q447 556 416 585T320 614H177V400ZM177
87H329Q393 87 428 117T464 201Q464 255 427 286T327 318H177V87Z" />
<glyph unicode="C" glyph-name="C" horiz-adv-x="729" d="M383 -12Q279 -12 204 33T87 160T46 349Q46 457 87 538T203 666T383 712Q506 712 584 652T683 484H565Q551 545 505 581T382 617Q277 617 216 546T155 349Q155 225 216 154T382 83Q459 83 505 117T565
210H683Q662 106 584 47T383 -12Z" />
<glyph unicode="D" glyph-name="D" horiz-adv-x="703" d="M71 0V700H298Q421 700 500 657T618 536T657 349Q657 242 619 164T501 43T298 0H71ZM177 90H294Q389 90 444 121T524 210T549 349Q549 430 525 489T445 579T294 611H177V90Z" />
<glyph unicode="E" glyph-name="E" horiz-adv-x="571" d="M71 0V700H516V614H177V396H486V312H177V86H516V0H71Z" />
<glyph unicode="F" glyph-name="F" horiz-adv-x="543" d="M71 0V700H510V614H177V393H453V308H177V0H71Z" />
<glyph unicode="G" glyph-name="G" horiz-adv-x="765" d="M375 -12Q276 -12 202 33T87 159T46 348Q46 455 88 537T207 665T391 712Q511 712 591 654T695 494H575Q559 550 512 582T391 614Q281 614 218 543T155 347Q155 222 217 152T382 82Q486 82 538 141T600
298H410V380H707V0H610L601 103Q566 48 513 18T375 -12Z" />
<glyph unicode="H" glyph-name="H" horiz-adv-x="693" d="M71 0V700H177V400H516V700H622V0H516V313H177V0H71Z" />
<glyph unicode="I" glyph-name="I" horiz-adv-x="248" d="M71 0V700H177V0H71Z" />
<glyph unicode="J" glyph-name="J" horiz-adv-x="516" d="M240 -12Q142 -12 85 43T27 198H133Q133 148 157 115T238 82Q293 82 316 113T339 194V700H445V194Q445 95 390 42T240 -12Z" />
<glyph unicode="K" glyph-name="K" horiz-adv-x="611" d="M71 0V700H177V400L453 700H584L325 421L590 0H461L249 340L177 262V0H71Z" />
<glyph unicode="L" glyph-name="L" horiz-adv-x="538" d="M71 0V700H177V84H495V0H71Z" />
<glyph unicode="M" glyph-name="M" horiz-adv-x="865" d="M71 0V700H196L433 234L669 700H794V0H688V517L474 100H392L177 516V0H71Z" />
<glyph unicode="N" glyph-name="N" horiz-adv-x="705" d="M71 0V700H177L528 173V700H634V0H528L177 527V0H71Z" />
<glyph unicode="O" glyph-name="O" horiz-adv-x="788" d="M394 -12Q290 -12 212 34T90 161T46 350Q46 457 90 538T212 666T394 712Q498 712 576 666T697 539T741 350Q741 243 698 162T576 34T394 -12ZM394 83Q466 83 519 115T603 207T633 350Q633 433 603 493T520
585T394 617Q322 617 268 585T185 493T155 350Q155 267 184 207T268 115T394 83Z" />
<glyph unicode="P" glyph-name="P" horiz-adv-x="593" d="M71 0V700H316Q398 700 452 673T532 598T559 490Q559 433 534 386T454 310T316 282H177V0H71ZM177 369H311Q386 369 418 401T451 490Q451 548 419 580T311 613H177V369Z" />
<glyph unicode="Q" glyph-name="Q" horiz-adv-x="789" d="M394 -12Q290 -12 212 34T90 161T46 350Q46 457 90 538T212 666T394 712Q498 712 576 666T697 539T741 350Q741 247 701 167T588 41L757 -131H623L498 1Q449 -12 394 -12ZM394 83Q466 83 519 115T603 207T633
350Q633 433 603 493T520 585T394 617Q322 617 268 585T185 493T155 350Q155 267 184 207T268 115T394 83Z" />
<glyph unicode="R" glyph-name="R" horiz-adv-x="608" d="M71 0V700H312Q395 700 448 672T528 597T554 491Q554 426 520 373T412 297L561 0H438L302 282H177V0H71ZM177 362H306Q378 362 411 397T445 488Q445 544 412 577T305 611H177V362Z" />
<glyph unicode="S" glyph-name="S" horiz-adv-x="588" d="M302 -12Q225 -12 167 15T77 92T43 211H155Q156 155 194 116T301 77Q362 77 396 106T431 182Q431 219 415 242T370 280T304 307T226 333Q145 360 105 403T64 516Q63 575 91 619T171 687T292 712Q360 712
411 687T492 618T522 514H410Q410 541 396 565T355 606T289 622Q239 623 207 597T174 525Q174 484 198 462T264 426T360 392Q412 375 453 351T518 288T543 189Q543 136 516 91T435 17T302 -12Z" />
<glyph unicode="T" glyph-name="T" horiz-adv-x="575" d="M235 0V614H28V700H547V614H341V0H235Z" />
<glyph unicode="U" glyph-name="U" horiz-adv-x="668" d="M333 -12Q258 -12 198 17T102 108T66 263V700H172V262Q172 170 216 127T335 84Q409 84 453 127T497 262V700H603V263Q603 169 567 108T469 18T333 -12Z" />
<glyph unicode="V" glyph-name="V" horiz-adv-x="684" d="M278 0L19 700H132L342 110L553 700H665L406 0H278Z" />
<glyph unicode="W" glyph-name="W" horiz-adv-x="989" d="M214 -1L25 700H139L278 120L438 700H555L710 120L849 700H963L771 0H647L494 549L336 0L214 -1Z" />
<glyph unicode="X" glyph-name="X" horiz-adv-x="631" d="M36 0L252 354L34 700H155L320 438L474 700H593L376 349L596 0H475L309 264L155 0H36Z" />
<glyph unicode="Y" glyph-name="Y" horiz-adv-x="602" d="M249 0V258L17 700H137L302 362L466 700H585L355 258V0H249Z" />
<glyph unicode="Z" glyph-name="Z" horiz-adv-x="550" d="M45 0V82L379 610H49V700H502V618L167 90H505V0H45Z" />
<glyph unicode="[" glyph-name="bracketleft" horiz-adv-x="333" d="M71 -161V811H277V724H171V-73H277V-161H71Z" />
<glyph unicode="\" glyph-name="backslash" horiz-adv-x="406" d="M277 -103L26 771H130L380 -103H277Z" />
<glyph unicode="]" glyph-name="bracketright" horiz-adv-x="333" d="M56 -161V-73H163V724H56V811H262V-161H56Z" />
<glyph unicode="^" glyph-name="asciicircum" horiz-adv-x="643" d="M35 174L272 700H372L608 174H500L322 573L143 174H35Z" />
<glyph unicode="_" glyph-name="underscore" horiz-adv-x="661" d="M56 -137V-37H605V-137H56Z" />
<glyph unicode="`" glyph-name="grave" horiz-adv-x="256" d="M237 537L19 649V737L237 613V537Z" />
<glyph unicode="a" glyph-name="a" d="M235 -12Q172 -12 131 9T70 64T50 140Q50 212 106 254T266 296H396V305Q396 363 365 392T283 421Q239 421 207 400T167 336H61Q66 390 97 428T177 487T284 508Q388 508 445 454T502 305V0H410L401 85Q380 44 340 16T235 -12ZM256
74Q299 74 328 94T374 149T395 224H277Q214 224 188 202T161 147Q161 113 186 94T256 74Z" />
<glyph unicode="b" glyph-name="b" horiz-adv-x="640" d="M346 -12Q288 -12 244 11T173 76L162 0H67V720H173V419Q197 454 239 481T347 508Q419 508 474 474T560 381T592 247Q592 172 561 114T474 22T346 -12ZM328 80Q396 80 440 126T484 248Q484 297 464 335T409
394T328 416Q260 416 217 369T173 248Q173 173 216 127T328 80Z" />
<glyph unicode="c" glyph-name="c" horiz-adv-x="585" d="M302 -12Q229 -12 172 21T82 112T49 248Q49 325 81 383T171 475T302 508Q394 508 456 460T537 330H426Q416 371 382 394T302 417Q263 417 230 398T177 341T157 248Q157 193 177 156T230 98T302 78Q348
78 382 101T426 166H537Q520 86 457 37T302 -12Z" />
<glyph unicode="d" glyph-name="d" horiz-adv-x="640" d="M293 -12Q221 -12 166 22T80 115T49 249Q49 324 80 382T166 474T294 508Q353 508 397 485T467 420V720H573V0H478L467 77Q443 42 401 15T293 -12ZM312 80Q380 80 423 127T467 248Q467 323 424 369T312
416Q244 416 200 370T156 248Q156 199 176 161T231 102T312 80Z" />
<glyph unicode="e" glyph-name="e" horiz-adv-x="584" d="M299 -12Q226 -12 170 20T81 111T49 246Q49 324 80 383T168 475T300 508Q373 508 427 476T511 389T541 270Q541 260 541 249T539 223H153Q158 151 200 114T299 76Q344 76 374 96T420 152H526Q506 82 447
35T299 -12ZM299 421Q246 421 205 390T155 295H435Q432 353 394 387T299 421Z" />
<glyph unicode="f" glyph-name="f" horiz-adv-x="346" d="M92 0V407H21V496H92V568Q92 649 132 684T247 720H299V630H263Q228 630 213 616T198 567V496H312V407H198V0H92Z" />
<glyph unicode="g" glyph-name="g" horiz-adv-x="561" d="M270 152Q231 152 198 161L155 119Q166 112 182 107T227 98T306 90Q405 81 449 43T493 -60Q493 -104 470 -143T397 -207T270 -232Q166 -232 102 -193T37 -73Q37 -42 53 -12T106 46Q85 55 70 65T42 87V111L128
199Q70 249 70 330Q70 379 93 419T162 484T270 508Q312 508 348 496H533V426L445 421Q469 380 469 330Q469 280 446 240T378 176T270 152ZM270 235Q316 235 344 259T373 329Q373 375 345 399T270 423Q223 423 195 399T166 329Q166 284 194 260T270 235ZM137 -63Q137
-106 175 -127T270 -149Q325 -149 359 -126T393 -63Q393 -34 370 -14T283 12Q235 15 198 21Q163 2 150 -20T137 -63Z" />
<glyph unicode="h" glyph-name="h" horiz-adv-x="590" d="M67 0V720H173V416Q198 459 242 483T341 508Q430 508 481 452T532 285V0H427V274Q427 418 312 418Q252 418 213 376T173 256V0H67Z" />
<glyph unicode="i" glyph-name="i" horiz-adv-x="253" d="M127 590Q97 590 78 608T58 655Q58 683 77 701T127 720Q157 720 176 702T196 655Q196 627 177 609T127 590ZM74 0V496H180V0H74Z" />
<glyph unicode="j" glyph-name="j" horiz-adv-x="255" d="M130 590Q100 590 81 608T61 655Q61 683 80 701T130 720Q160 720 179 702T199 655Q199 627 180 609T130 590ZM-28 -220V-130H11Q46 -130 61 -116T76 -67V496H182V-68Q182 -149 141 -184T27 -220H-28Z" />
<glyph unicode="k" glyph-name="k" horiz-adv-x="536" d="M67 0V720H173V291L363 496H490L279 271L521 0H387L173 254V0H67Z" />
<glyph unicode="l" glyph-name="l" horiz-adv-x="240" d="M67 0V720H173V0H67Z" />
<glyph unicode="m" glyph-name="m" horiz-adv-x="916" d="M67 0V496H161L170 426Q194 464 233 486T325 508Q443 508 489 415Q516 458 561 483T660 508Q753 508 806 452T859 285V0H753V274Q753 418 643 418Q587 418 552 376T516 256V0H410V274Q410 418 299 418Q244
418 209 376T173 256V0H67Z" />
<glyph unicode="n" glyph-name="n" horiz-adv-x="590" d="M67 0V496H161L169 409Q192 455 236 481T339 508Q429 508 480 452T532 285V0H427V274Q427 418 309 418Q250 418 212 376T173 256V0H67Z" />
<glyph unicode="o" glyph-name="o" horiz-adv-x="599" d="M299 -12Q228 -12 172 20T82 111T49 248Q49 326 82 384T173 475T300 508Q371 508 427 476T517 385T551 248Q551 170 518 112T427 21T299 -12ZM299 79Q337 79 369 98T422 154T442 248Q442 304 423 341T371
398T300 417Q262 417 230 398T177 342T157 248Q157 192 177 155T229 98T299 79Z" />
<glyph unicode="p" glyph-name="p" horiz-adv-x="640" d="M67 -220V496H162L173 419Q197 454 239 481T347 508Q419 508 474 474T560 381T592 247Q592 172 561 114T474 22T346 -12Q288 -12 244 11T173 76V-220H67ZM328 80Q396 80 440 126T484 248Q484 297 464 335T409
394T328 416Q260 416 217 369T173 248Q173 173 216 127T328 80Z" />
<glyph unicode="q" glyph-name="q" horiz-adv-x="640" d="M467 -220V77Q443 42 401 15T293 -12Q221 -12 166 22T80 115T49 249Q49 324 80 382T166 474T294 508Q353 508 397 485T467 420L478 496H573V-220H467ZM312 80Q380 80 423 127T467 248Q467 323 424 369T312
416Q244 416 200 370T156 248Q156 199 176 161T231 102T312 80Z" />
<glyph unicode="r" glyph-name="r" horiz-adv-x="380" d="M67 0V496H162L171 402Q197 451 243 479T356 508V397H327Q283 397 249 383T194 334T173 238V0H67Z" />
<glyph unicode="s" glyph-name="s" horiz-adv-x="512" d="M265 -12Q171 -12 110 34T40 156H147Q155 122 185 98T264 73Q312 73 334 93T356 139Q356 177 326 190T241 215Q199 224 158 239T89 281T61 356Q61 421 111 464T251 508Q334 508 385 468T446 355H344Q339
387 315 405T249 423Q209 423 187 407T165 364Q165 338 195 323T276 296Q326 285 368 271T437 228T463 146Q464 78 411 33T265 -12Z" />
<glyph unicode="t" glyph-name="t" horiz-adv-x="404" d="M275 0Q202 0 159 35T116 162V407H31V496H116L129 622H222V496H362V407H222V162Q222 121 239 106T300 90H357V0H275Z" />
<glyph unicode="u" glyph-name="u" horiz-adv-x="590" d="M250 -12Q160 -12 109 44T57 211V496H163V222Q163 78 281 78Q340 78 378 120T416 240V496H522V0H428L420 87Q397 41 353 15T250 -12Z" />
<glyph unicode="v" glyph-name="v" horiz-adv-x="537" d="M206 0L20 496H131L269 101L407 496H517L332 0H206Z" />
<glyph unicode="w" glyph-name="w" horiz-adv-x="778" d="M166 0L20 496H126L222 122L330 496H448L556 122L652 496H758L612 0H503L389 390L275 0H166Z" />
<glyph unicode="x" glyph-name="x" horiz-adv-x="530" d="M19 0L195 248L19 496H132L265 306L397 496H511L335 248L511 0H397L265 190L132 0H19Z" />
<glyph unicode="y" glyph-name="y" horiz-adv-x="577" d="M125 -220L244 41H215L19 496H134L286 129L445 496H557L237 -220H125Z" />
<glyph unicode="z" glyph-name="z" horiz-adv-x="466" d="M34 0V86L299 408H38V496H419V410L152 88H424V0H34Z" />
<glyph unicode="{" glyph-name="braceleft" horiz-adv-x="444" d="M329 -162Q257 -162 213 -123T168 -5Q168 29 173 57T183 113T189 179Q189 214 168 243T88 282V367Q146 377 167 405T189 470Q189 507 184 535T173 592T168 654Q168 732 212 771T329 811H387V722H348Q309
722 290 704T270 644Q270 616 275 590T285 535T290 466Q290 414 264 376T180 325V323Q238 311 264 273T290 182Q290 144 285 115T275 59T270 5Q270 -36 289 -54T348 -73H387V-162H329Z" />
<glyph unicode="|" glyph-name="bar" horiz-adv-x="248" d="M71 -100V720H177V-100H71Z" />
<glyph unicode="}" glyph-name="braceright" horiz-adv-x="444" d="M57 -162V-73H95Q134 -73 154 -55T174 5Q174 32 169 58T159 114T154 182Q154 235 180 273T264 323V325Q206 338 180 376T154 466Q154 505 159 534T169 590T174 644Q174 685 154 703T95 722H57V811H115Q187
811 231 772T276 654Q276 620 271 592T260 536T254 470Q254 434 275 406T356 367V282Q297 272 276 243T254 179Q254 142 259 114T270 57T276 -5Q276 -83 232 -122T115 -162H57Z" />
<glyph unicode="~" glyph-name="asciitilde" horiz-adv-x="540" d="M355 239Q326 239 303 249T260 272T221 295T179 306Q153 306 136 288T113 240H34Q48 322 87 361T185 400Q215 400 238 390T282 367T321 343T362 333Q388 333 405 350T427 399H506Q493 317 454
278T355 239Z" />
<glyph unicode="&#xa0;" glyph-name="uni00A0" horiz-adv-x="252" />
<glyph unicode="&#xa1;" glyph-name="exclamdown" horiz-adv-x="272" d="M137 432Q106 432 87 451T67 499Q67 526 86 545T137 565Q166 565 185 546T205 499Q205 470 186 451T137 432ZM77 -141L89 351H179L191 -141H77Z" />
<glyph unicode="&#xa2;" glyph-name="cent" horiz-adv-x="585" d="M251 -104V-7Q191 4 146 38T75 126T49 248Q49 316 74 369T145 457T251 503V600H351V504Q423 492 472 447T537 330H426Q416 371 382 394T302 417Q263 417 230 398T177 341T157 248Q157 193 177
156T230 98T302 78Q348 78 382 101T426 166H537Q522 97 473 51T351 -8V-104H251Z" />
<glyph unicode="&#xa3;" glyph-name="sterling" horiz-adv-x="610" d="M81 0V64Q119 105 141 145T164 252Q164 265 162 278T156 304H42V378H132Q122 406 114 436T106 503Q106 567 134 614T211 686T326 712Q400 712 448 684T522 607T551 501H453Q450 554 419 589T328
624Q279 624 243 594T207 499Q207 469 215 439T235 378H425V304H258Q261 292 262 279T264 252Q264 207 247 165T192 85H553V-1L81 0Z" />
<glyph unicode="&#xa4;" glyph-name="currency" horiz-adv-x="544" d="M109 87L64 132L122 190Q90 235 90 297Q90 361 123 406L64 465L109 510L171 448Q215 474 273 474Q330 474 374 448L435 510L480 465L421 406Q437 385 446 358T456 297Q456 266 447 239T422
190L480 132L435 87L375 147Q330 120 272 120Q213 120 169 147L109 87ZM272 193Q304 193 333 217T362 297Q362 352 334 377T272 402Q237 402 210 377T183 297Q183 242 210 218T272 193Z" />
<glyph unicode="&#xa5;" glyph-name="yen" horiz-adv-x="621" d="M58 158V233H258V258L228 316H58V391H188L26 700H146L311 354L476 700H595L434 391H564V316H394L364 258V233H564V158H364V0H258V158H58Z" />
<glyph unicode="&#xa6;" glyph-name="brokenbar" horiz-adv-x="248" d="M71 390V720H177V390H71ZM71 -100V230H177V-100H71Z" />
<glyph unicode="&#xa7;" glyph-name="section" horiz-adv-x="597" d="M295 -232Q226 -232 175 -207T94 -138T64 -34H176Q177 -61 191 -85T231 -126T298 -142Q347 -143 379 -117T412 -45Q412 -4 388 17T322 52T226 84Q175 102 134 126T68 190T43 288Q43 325 57
360T100 422Q73 460 73 516Q72 575 100 619T180 687T301 712Q369 712 420 687T501 618T531 514H419Q418 541 405 565T364 606T298 622Q248 623 216 597T183 525Q183 484 207 463T273 428T369 396Q421 378 462 354T527 290T552 192Q552 155 538 120T496 58Q523 19
523 -36Q523 -95 495 -139T415 -207T295 -232ZM415 119Q440 146 440 185Q440 231 415 256T346 297T248 332Q227 339 211 346T181 361Q155 334 155 295Q155 250 180 225T249 184T347 148Q366 142 383 135T415 119Z" />
<glyph unicode="&#xa8;" glyph-name="dieresis" horiz-adv-x="334" d="M252 568Q229 568 213 584T196 623Q196 647 212 663T252 679Q275 679 291 663T307 623Q307 600 291 584T252 568ZM82 568Q58 568 42 584T26 623Q26 647 42 663T82 679Q105 679 121 663T138
623Q138 600 122 584T82 568Z" />
<glyph unicode="&#xa9;" glyph-name="copyright" horiz-adv-x="790" d="M395 -5Q292 -5 214 40T92 166T48 351Q48 455 91 535T213 660T395 706Q498 706 576 661T699 535T743 351Q743 247 699 167T577 41T395 -5ZM395 37Q488 37 556 76T661 187T698 351Q698 445
661 515T556 625T395 665Q302 665 234 626T129 516T92 351Q92 258 129 187T234 77T395 37ZM396 121Q335 121 286 148T207 227T177 352Q177 424 206 475T285 554T396 582Q471 582 527 541T601 426H507Q495 465 465 486T394 507Q341 507 304 468T267 351Q267 274
304 235T394 195Q436 195 465 216T507 276H601Q583 205 527 163T396 121Z" />
<glyph unicode="&#xaa;" glyph-name="ordfeminine" horiz-adv-x="454" d="M199 348Q151 348 113 370T53 434T31 529Q31 584 53 624T112 687T197 710Q246 710 278 691T327 641L335 704H410V353H335L327 415Q312 386 280 367T199 348ZM221 413Q265 413 296 443T327
529Q327 584 296 614T221 644Q179 644 148 614T117 529Q117 474 148 444T221 413Z" />
<glyph unicode="&#xab;" glyph-name="guillemotleft" horiz-adv-x="478" d="M326 120L233 295L326 470H428L332 295L428 120H326ZM137 120L43 295L137 470H239L142 295L239 120H137Z" />
<glyph unicode="&#xac;" glyph-name="logicalnot" horiz-adv-x="675" d="M521 212V351H46V434H627V212H521Z" />
<glyph unicode="&#xad;" glyph-name="uni00AD" horiz-adv-x="600" d="M313 246V335H720V246H313Z" />
<glyph unicode="&#xae;" glyph-name="registered" horiz-adv-x="506" d="M254 300Q194 300 148 326T75 399T49 506Q49 565 75 612T147 685T254 712Q313 712 359 686T432 612T458 506Q458 446 432 400T360 327T254 300ZM254 341Q326 341 370 387T414 506Q414 578
370 624T254 670Q181 670 137 624T93 506Q93 433 137 387T254 341ZM171 401V615H271Q304 615 324 597T344 548Q344 499 297 485L353 401H291L242 482H224V401H171ZM224 522H264Q275 522 283 527T291 546Q291 558 283 563T264 568H224V522Z" />
<glyph unicode="&#xaf;" glyph-name="overscore" horiz-adv-x="399" d="M19 585V662H380V585H19Z" />
<glyph unicode="&#xb0;" glyph-name="degree" horiz-adv-x="351" d="M175 435Q138 435 107 452T58 500T39 573Q39 615 58 646T108 695T176 712Q213 712 244 695T294 647T313 573Q313 531 294 500T244 452T175 435ZM175 507Q198 507 217 523T237 574Q237 607 218
623T176 640Q154 640 134 624T114 574Q114 540 133 524T175 507Z" />
<glyph unicode="&#xb1;" glyph-name="plusminus" horiz-adv-x="610" d="M63 274V363H259V497H351V363H547V274H351V140H259V274H63ZM63 0V92H547V0H63Z" />
<glyph unicode="&#xb2;" glyph-name="uni00B2" horiz-adv-x="344" d="M36 352V412L151 499Q179 522 197 545T216 599Q216 624 202 637T168 650Q122 650 116 596H33Q37 645 72 678T174 711Q236 711 269 679T303 603Q303 563 278 533T202 470L124 418H305V352H36Z" />
<glyph unicode="&#xb3;" glyph-name="uni00B3" horiz-adv-x="341" d="M168 347Q101 347 65 376T23 458H107Q110 430 126 419T166 408Q191 408 206 421T222 457Q222 481 205 494T161 507H118V552H159Q185 552 201 564T218 602Q218 623 204 636T163 649Q138 649
124 638T106 606H27Q31 650 67 680T171 711Q229 711 267 682T306 608Q306 577 288 557T240 530V527Q271 519 290 499T309 445Q309 404 271 376T168 347Z" />
<glyph unicode="&#xb4;" glyph-name="acute" horiz-adv-x="256" d="M19 537V613L237 737V649L19 537Z" />
<glyph unicode="&#xb5;" glyph-name="uni00B5" horiz-adv-x="600" d="M67 -220V496H173V222Q173 78 291 78Q350 78 388 120T427 240V496H533V0H438L431 86Q407 41 363 15T261 -12Q208 -12 173 12V-220H67Z" />
<glyph unicode="&#xb6;" glyph-name="paragraph" horiz-adv-x="614" d="M283 -100V289H270Q188 289 136 316T58 391T33 494Q33 551 58 597T136 672T270 700H543V-100H452V618H374V-100H283Z" />
<glyph unicode="&#xb7;" glyph-name="middot" horiz-adv-x="217" d="M109 269Q79 269 60 288T40 335Q40 363 59 382T109 402Q139 402 158 383T177 335Q177 308 158 289T109 269Z" />
<glyph unicode="&#xb8;" glyph-name="cedilla" horiz-adv-x="282" d="M19 -261V-197H121Q182 -197 182 -155Q182 -116 121 -116H66V7H134V-56Q188 -55 225 -80T263 -157Q263 -208 227 -234T138 -261H19Z" />
<glyph unicode="&#xb9;" glyph-name="uni00B9" horiz-adv-x="219" d="M94 352V625L26 608V659L127 704H177V352H94Z" />
<glyph unicode="&#xba;" glyph-name="ordmasculine" horiz-adv-x="439" d="M219 349Q164 349 122 372T55 436T31 531Q31 585 55 626T122 689T220 712Q275 712 317 690T384 626T409 531Q409 477 384 436T317 372T219 349ZM219 415Q261 415 292 444T324 530Q324
588 293 617T219 647Q177 647 147 618T116 530Q116 473 146 444T219 415Z" />
<glyph unicode="&#xbb;" glyph-name="guillemotright" horiz-adv-x="478" d="M240 120L336 295L240 470H342L435 295L342 120H240ZM50 120L147 295L50 470H152L246 295L152 120H50Z" />
<glyph unicode="&#xbc;" glyph-name="onequarter" horiz-adv-x="666" d="M107 352V625L39 608V659L140 704H190V352H107ZM68 0L441 700H542L170 0H68ZM504 0V68H319V115L476 353H587V119H633V68H587V0H504ZM400 120H507V286L400 120Z" />
<glyph unicode="&#xbd;" glyph-name="onehalf" horiz-adv-x="711" d="M107 352V625L39 608V659L140 704H190V352H107ZM65 0L433 700H535L167 0H65ZM386 -1V59L501 146Q529 169 547 192T566 246Q566 271 553 284T519 297Q472 297 466 243H384Q387 292 422 325T525
358Q587 358 620 326T653 250Q653 210 628 180T552 117L474 65H655V-1H386Z" />
<glyph unicode="&#xbe;" glyph-name="threequarters" horiz-adv-x="763" d="M187 347Q120 347 84 376T42 458H126Q129 430 145 419T184 408Q210 408 225 421T241 457Q241 481 224 494T180 507H137V552H178Q204 552 220 564T237 602Q237 623 222 636T182 649Q157
649 143 638T125 606H46Q50 650 86 680T190 711Q248 711 286 682T325 608Q325 577 307 557T259 530V527Q290 519 309 499T328 445Q328 404 290 376T187 347ZM166 0L545 700H647L268 0H166ZM601 0V68H416V115L569 353H684V119H730V68H684V0H601ZM498 119H604V289L498
119Z" />
<glyph unicode="&#xbf;" glyph-name="questiondown" horiz-adv-x="521" d="M331 426Q301 426 282 445T262 492Q262 520 281 539T331 558Q361 558 380 539T400 492Q400 464 381 445T331 426ZM266 -160Q200 -160 150 -135T70 -64T41 48Q41 120 72 165T157 232T281
254L284 346H377L381 182H343Q289 182 244 172T172 134T144 48Q144 -7 177 -39T267 -71Q324 -71 356 -40T389 45H489Q490 -15 463 -61T385 -134T266 -160Z" />
<glyph unicode="&#xc0;" glyph-name="Agrave" horiz-adv-x="683" d="M26 0L284 700H400L656 0H544L484 171H198L138 0H26ZM228 255H454L341 574L228 255ZM389 741L171 853V941L389 817V741Z" />
<glyph unicode="&#xc1;" glyph-name="Aacute" horiz-adv-x="683" d="M26 0L284 700H400L656 0H544L484 171H198L138 0H26ZM228 255H454L341 574L228 255ZM295 741V817L513 941V853L295 741Z" />
<glyph unicode="&#xc2;" glyph-name="Acircumflex" horiz-adv-x="683" d="M26 0L284 700H400L656 0H544L484 171H198L138 0H26ZM228 255H454L341 574L228 255ZM200 751V830L341 911L483 830V751L341 834L200 751Z" />
<glyph unicode="&#xc3;" glyph-name="Atilde" horiz-adv-x="683" d="M26 0L284 700H400L656 0H544L484 171H198L138 0H26ZM228 255H454L341 574L228 255ZM406 754Q378 754 360 765T325 788T287 800Q251 800 245 755H186Q194 813 222 840T292 868Q319 868 338 857T373
834T411 822Q427 822 439 833T454 867H513Q505 810 477 782T406 754Z" />
<glyph unicode="&#xc4;" glyph-name="Adieresis" horiz-adv-x="683" d="M26 0L284 700H400L656 0H544L484 171H198L138 0H26ZM228 255H454L341 574L228 255ZM427 772Q404 772 388 788T371 827Q371 851 387 867T427 883Q450 883 466 867T482 827Q482 804 466 788T427
772ZM257 772Q233 772 217 788T201 827Q201 851 217 867T257 883Q280 883 296 867T313 827Q313 804 297 788T257 772Z" />
<glyph unicode="&#xc5;" glyph-name="Aring" horiz-adv-x="683" d="M26 0L284 700H400L656 0H544L484 171H198L138 0H26ZM228 255H454L341 574L228 255ZM342 756Q298 756 266 784T233 863Q233 913 265 942T342 971Q388 971 420 942T452 863Q452 813 420 785T342
756ZM342 807Q365 807 381 822T397 863Q397 890 381 905T342 920Q320 920 304 905T288 863Q288 838 304 823T342 807Z" />
<glyph unicode="&#xc6;" glyph-name="AE" horiz-adv-x="925" d="M26 0L416 700H870V616H590V395H840V313H590V84H870V0H484V149H224L142 0H26ZM484 616L270 231H484V616Z" />
<glyph unicode="&#xc7;" glyph-name="Ccedilla" horiz-adv-x="729" d="M383 -12Q279 -12 204 33T87 160T46 349Q46 457 87 538T203 666T383 712Q506 712 584 652T683 484H565Q551 545 505 581T382 617Q277 617 216 546T155 349Q155 225 216 154T382 83Q459 83
505 117T565 210H683Q662 106 584 47T383 -12ZM308 -262V-198H410Q471 -198 471 -156Q471 -117 410 -117H355V6H423V-57Q477 -56 514 -81T552 -158Q552 -209 516 -235T427 -262H308Z" />
<glyph unicode="&#xc8;" glyph-name="Egrave" horiz-adv-x="571" d="M71 0V700H516V614H177V396H486V312H177V86H516V0H71ZM345 741L127 853V941L345 817V741Z" />
<glyph unicode="&#xc9;" glyph-name="Eacute" horiz-adv-x="571" d="M71 0V700H516V614H177V396H486V312H177V86H516V0H71ZM250 741V817L468 941V853L250 741Z" />
<glyph unicode="&#xca;" glyph-name="Ecircumflex" horiz-adv-x="571" d="M71 0V700H516V614H177V396H486V312H177V86H516V0H71ZM156 751V830L297 911L439 830V751L297 834L156 751Z" />
<glyph unicode="&#xcb;" glyph-name="Edieresis" horiz-adv-x="571" d="M71 0V700H516V614H177V396H486V312H177V86H516V0H71ZM383 772Q360 772 344 788T327 827Q327 851 343 867T383 883Q406 883 422 867T438 827Q438 804 422 788T383 772ZM213 772Q189 772 173
788T157 827Q157 851 173 867T213 883Q236 883 252 867T269 827Q269 804 253 788T213 772Z" />
<glyph unicode="&#xcc;" glyph-name="Igrave" horiz-adv-x="248" d="M71 0V700H177V0H71ZM428 741L210 853V941L428 817V741Z" />
<glyph unicode="&#xcd;" glyph-name="Iacute" horiz-adv-x="248" d="M71 0V700H177V0H71ZM77 741V817L295 941V853L77 741Z" />
<glyph unicode="&#xce;" glyph-name="Icircumflex" horiz-adv-x="248" d="M71 0V700H177V0H71ZM239 751V830L380 911L522 830V751L380 834L239 751Z" />
<glyph unicode="&#xcf;" glyph-name="Idieresis" horiz-adv-x="248" d="M71 0V700H177V0H71ZM466 772Q443 772 427 788T410 827Q410 851 426 867T466 883Q489 883 505 867T521 827Q521 804 505 788T466 772ZM296 772Q272 772 256 788T240 827Q240 851 256 867T296
883Q319 883 335 867T352 827Q352 804 336 788T296 772Z" />
<glyph unicode="&#xd0;" glyph-name="Eth" horiz-adv-x="721" d="M88 0V303H7V396H88V700H315Q438 700 517 657T635 536T674 349Q674 242 636 164T518 43T315 0H88ZM194 90H311Q406 90 462 121T542 210T566 349Q566 430 542 489T462 579T311 611H194V396H383V303H194V90Z" />
<glyph unicode="&#xd1;" glyph-name="Ntilde" horiz-adv-x="705" d="M71 0V700H177L528 173V700H634V0H528L177 527V0H71ZM417 754Q389 754 371 765T336 788T298 800Q262 800 256 755H197Q205 813 233 840T303 868Q330 868 349 857T384 834T422 822Q438 822 450
833T465 867H524Q516 810 488 782T417 754Z" />
<glyph unicode="&#xd2;" glyph-name="Ograve" horiz-adv-x="788" d="M394 -12Q290 -12 212 34T90 161T46 350Q46 457 90 538T212 666T394 712Q498 712 576 666T697 539T741 350Q741 243 698 162T576 34T394 -12ZM394 83Q466 83 519 115T603 207T633 350Q633 433
603 493T520 585T394 617Q322 617 268 585T185 493T155 350Q155 267 184 207T268 115T394 83ZM442 741L224 853V941L442 817V741Z" />
<glyph unicode="&#xd3;" glyph-name="Oacute" horiz-adv-x="788" d="M394 -12Q290 -12 212 34T90 161T46 350Q46 457 90 538T212 666T394 712Q498 712 576 666T697 539T741 350Q741 243 698 162T576 34T394 -12ZM394 83Q466 83 519 115T603 207T633 350Q633 433
603 493T520 585T394 617Q322 617 268 585T185 493T155 350Q155 267 184 207T268 115T394 83ZM347 741V817L565 941V853L347 741Z" />
<glyph unicode="&#xd4;" glyph-name="Ocircumflex" horiz-adv-x="788" d="M394 -12Q290 -12 212 34T90 161T46 350Q46 457 90 538T212 666T394 712Q498 712 576 666T697 539T741 350Q741 243 698 162T576 34T394 -12ZM394 83Q466 83 519 115T603 207T633 350Q633
433 603 493T520 585T394 617Q322 617 268 585T185 493T155 350Q155 267 184 207T268 115T394 83ZM253 751V830L394 911L536 830V751L394 834L253 751Z" />
<glyph unicode="&#xd5;" glyph-name="Otilde" horiz-adv-x="788" d="M394 -12Q290 -12 212 34T90 161T46 350Q46 457 90 538T212 666T394 712Q498 712 576 666T697 539T741 350Q741 243 698 162T576 34T394 -12ZM394 83Q466 83 519 115T603 207T633 350Q633 433
603 493T520 585T394 617Q322 617 268 585T185 493T155 350Q155 267 184 207T268 115T394 83ZM458 754Q430 754 412 765T377 788T339 800Q303 800 297 755H238Q246 813 274 840T344 868Q371 868 390 857T425 834T463 822Q479 822 491 833T506 867H565Q557 810 529
782T458 754Z" />
<glyph unicode="&#xd6;" glyph-name="Odieresis" horiz-adv-x="788" d="M394 -12Q290 -12 212 34T90 161T46 350Q46 457 90 538T212 666T394 712Q498 712 576 666T697 539T741 350Q741 243 698 162T576 34T394 -12ZM394 83Q466 83 519 115T603 207T633 350Q633
433 603 493T520 585T394 617Q322 617 268 585T185 493T155 350Q155 267 184 207T268 115T394 83ZM480 772Q457 772 441 788T424 827Q424 851 440 867T480 883Q503 883 519 867T535 827Q535 804 519 788T480 772ZM310 772Q286 772 270 788T254 827Q254 851 270
867T310 883Q333 883 349 867T366 827Q366 804 350 788T310 772Z" />
<glyph unicode="&#xd7;" glyph-name="multiply" horiz-adv-x="504" d="M122 97L60 160L189 290L64 416L127 479L252 353L382 483L445 420L315 290L441 165L377 102L252 228L122 97Z" />
<glyph unicode="&#xd8;" glyph-name="Oslash" horiz-adv-x="785" d="M35 0L127 106Q88 152 67 214T46 350Q46 457 89 538T211 666T393 712Q454 712 506 696T601 650L645 700H750L659 595Q699 549 720 487T741 350Q741 243 698 162T576 34T393 -12Q333 -12 281
4T185 51L141 0H35ZM154 350Q154 252 196 185L535 574Q476 617 393 617Q322 617 268 585T184 493T154 350ZM393 83Q465 83 519 115T603 207T633 350Q633 400 622 441T590 516L251 126Q310 83 393 83Z" />
<glyph unicode="&#xd9;" glyph-name="Ugrave" horiz-adv-x="668" d="M333 -12Q258 -12 198 17T102 108T66 263V700H172V262Q172 170 216 127T335 84Q409 84 453 127T497 262V700H603V263Q603 169 567 108T469 18T333 -12ZM381 741L163 853V941L381 817V741Z" />
<glyph unicode="&#xda;" glyph-name="Uacute" horiz-adv-x="668" d="M333 -12Q258 -12 198 17T102 108T66 263V700H172V262Q172 170 216 127T335 84Q409 84 453 127T497 262V700H603V263Q603 169 567 108T469 18T333 -12ZM286 741V817L504 941V853L286 741Z" />
<glyph unicode="&#xdb;" glyph-name="Ucircumflex" horiz-adv-x="668" d="M333 -12Q258 -12 198 17T102 108T66 263V700H172V262Q172 170 216 127T335 84Q409 84 453 127T497 262V700H603V263Q603 169 567 108T469 18T333 -12ZM192 751V830L333 911L475 830V751L333
834L192 751Z" />
<glyph unicode="&#xdc;" glyph-name="Udieresis" horiz-adv-x="668" d="M333 -12Q258 -12 198 17T102 108T66 263V700H172V262Q172 170 216 127T335 84Q409 84 453 127T497 262V700H603V263Q603 169 567 108T469 18T333 -12ZM419 772Q396 772 380 788T363 827Q363
851 379 867T419 883Q442 883 458 867T474 827Q474 804 458 788T419 772ZM249 772Q225 772 209 788T193 827Q193 851 209 867T249 883Q272 883 288 867T305 827Q305 804 289 788T249 772Z" />
<glyph unicode="&#xdd;" glyph-name="Yacute" horiz-adv-x="602" d="M249 0V258L17 700H137L302 362L466 700H585L355 258V0H249ZM255 741V817L473 941V853L255 741Z" />
<glyph unicode="&#xde;" glyph-name="Thorn" horiz-adv-x="593" d="M71 0V700H177V560H316Q398 560 452 533T532 458T559 350Q559 293 534 246T454 170T316 141H177V0H71ZM177 228H311Q386 228 418 261T451 350Q451 408 419 440T311 472H177V228Z" />
<glyph unicode="&#xdf;" glyph-name="germandbls" horiz-adv-x="685" d="M457 -10Q369 -10 313 38T247 172H349Q353 126 381 99T456 71Q499 71 522 91T546 148Q546 181 525 202T448 242Q367 269 332 298T297 372Q297 402 311 421T344 454T384 481T418 510T432
553Q432 595 399 619T309 643Q240 643 207 607T174 505V0H68V515Q68 578 96 627T179 704T313 732Q384 732 434 709T510 648T537 563Q537 530 524 508T491 471T451 443T418 419T404 388Q404 374 412 363T444 341T512 314Q586 288 618 250T651 154Q651 81 599 36T457
-10Z" />
<glyph unicode="&#xe0;" glyph-name="agrave" d="M235 -12Q172 -12 131 9T70 64T50 140Q50 212 106 254T266 296H396V305Q396 363 365 392T283 421Q239 421 207 400T167 336H61Q66 390 97 428T177 487T284 508Q388 508 445 454T502 305V0H410L401 85Q380 44 340
16T235 -12ZM256 74Q299 74 328 94T374 149T395 224H277Q214 224 188 202T161 147Q161 113 186 94T256 74ZM328 537L110 649V737L328 613V537Z" />
<glyph unicode="&#xe1;" glyph-name="aacute" d="M235 -12Q172 -12 131 9T70 64T50 140Q50 212 106 254T266 296H396V305Q396 363 365 392T283 421Q239 421 207 400T167 336H61Q66 390 97 428T177 487T284 508Q388 508 445 454T502 305V0H410L401 85Q380 44 340
16T235 -12ZM256 74Q299 74 328 94T374 149T395 224H277Q214 224 188 202T161 147Q161 113 186 94T256 74ZM252 537V613L470 737V649L252 537Z" />
<glyph unicode="&#xe2;" glyph-name="acircumflex" d="M235 -12Q172 -12 131 9T70 64T50 140Q50 212 106 254T266 296H396V305Q396 363 365 392T283 421Q239 421 207 400T167 336H61Q66 390 97 428T177 487T284 508Q388 508 445 454T502 305V0H410L401 85Q380
44 340 16T235 -12ZM256 74Q299 74 328 94T374 149T395 224H277Q214 224 188 202T161 147Q161 113 186 94T256 74ZM139 547V626L280 707L422 626V547L280 630L139 547Z" />
<glyph unicode="&#xe3;" glyph-name="atilde" d="M235 -12Q172 -12 131 9T70 64T50 140Q50 212 106 254T266 296H396V305Q396 363 365 392T283 421Q239 421 207 400T167 336H61Q66 390 97 428T177 487T284 508Q388 508 445 454T502 305V0H410L401 85Q380 44 340
16T235 -12ZM256 74Q299 74 328 94T374 149T395 224H277Q214 224 188 202T161 147Q161 113 186 94T256 74ZM337 550Q310 550 291 561T256 584T219 596Q182 596 176 551H117Q126 609 153 636T223 664Q250 664 269 653T304 630T342 618Q359 618 370 629T385 663H444Q436
606 408 578T337 550Z" />
<glyph unicode="&#xe4;" glyph-name="adieresis" d="M235 -12Q172 -12 131 9T70 64T50 140Q50 212 106 254T266 296H396V305Q396 363 365 392T283 421Q239 421 207 400T167 336H61Q66 390 97 428T177 487T284 508Q388 508 445 454T502 305V0H410L401 85Q380 44
340 16T235 -12ZM256 74Q299 74 328 94T374 149T395 224H277Q214 224 188 202T161 147Q161 113 186 94T256 74ZM366 568Q343 568 327 584T310 623Q310 647 326 663T366 679Q389 679 405 663T421 623Q421 600 405 584T366 568ZM196 568Q172 568 156 584T140 623Q140
647 156 663T196 679Q219 679 235 663T252 623Q252 600 236 584T196 568Z" />
<glyph unicode="&#xe5;" glyph-name="aring" d="M235 -12Q172 -12 131 9T70 64T50 140Q50 212 106 254T266 296H396V305Q396 363 365 392T283 421Q239 421 207 400T167 336H61Q66 390 97 428T177 487T284 508Q388 508 445 454T502 305V0H410L401 85Q380 44 340
16T235 -12ZM256 74Q299 74 328 94T374 149T395 224H277Q214 224 188 202T161 147Q161 113 186 94T256 74ZM280 552Q236 552 204 580T171 659Q171 709 203 738T280 767Q326 767 358 738T390 659Q390 609 358 581T280 552ZM280 603Q304 603 320 618T336 659Q336
686 320 701T280 716Q258 716 242 701T226 659Q226 634 242 619T280 603Z" />
<glyph unicode="&#xe6;" glyph-name="ae" horiz-adv-x="927" d="M241 -12Q178 -12 136 9T72 64T50 140Q50 213 105 254T261 296H397V305Q397 363 366 392T287 421Q246 421 215 400T176 337H70Q76 391 106 429T184 487T287 508Q348 508 393 487T465 427Q498 465
545 486T647 508Q718 508 771 476T854 390T884 271Q884 261 884 250T883 224H505Q507 175 527 142T579 93T646 76Q695 76 726 101T772 166H876Q863 116 832 76T754 12T646 -12Q581 -12 527 17T441 98Q411 51 363 20T241 -12ZM507 297H778Q775 355 738 388T647 421Q596
421 556 390T507 297ZM253 74Q291 74 321 92T370 142T394 209V224H273Q213 224 187 203T161 149Q161 115 186 95T253 74Z" />
<glyph unicode="&#xe7;" glyph-name="ccedilla" horiz-adv-x="585" d="M302 -12Q229 -12 172 21T82 112T49 248Q49 325 81 383T171 475T302 508Q394 508 456 460T537 330H426Q416 371 382 394T302 417Q263 417 230 398T177 341T157 248Q157 193 177 156T230 98T302
78Q348 78 382 101T426 166H537Q520 86 457 37T302 -12ZM221 -263V-199H323Q384 -199 384 -157Q384 -118 323 -118H268V5H336V-58Q390 -57 427 -82T465 -159Q465 -210 429 -236T340 -263H221Z" />
<glyph unicode="&#xe8;" glyph-name="egrave" horiz-adv-x="584" d="M299 -12Q226 -12 170 20T81 111T49 246Q49 324 80 383T168 475T300 508Q373 508 427 476T511 389T541 270Q541 260 541 249T539 223H153Q158 151 200 114T299 76Q344 76 374 96T420 152H526Q506
82 447 35T299 -12ZM299 421Q246 421 205 390T155 295H435Q432 353 394 387T299 421ZM345 537L127 649V737L345 613V537Z" />
<glyph unicode="&#xe9;" glyph-name="eacute" horiz-adv-x="584" d="M299 -12Q226 -12 170 20T81 111T49 246Q49 324 80 383T168 475T300 508Q373 508 427 476T511 389T541 270Q541 260 541 249T539 223H153Q158 151 200 114T299 76Q344 76 374 96T420 152H526Q506
82 447 35T299 -12ZM299 421Q246 421 205 390T155 295H435Q432 353 394 387T299 421ZM270 537V613L488 737V649L270 537Z" />
<glyph unicode="&#xea;" glyph-name="ecircumflex" horiz-adv-x="584" d="M299 -12Q226 -12 170 20T81 111T49 246Q49 324 80 383T168 475T300 508Q373 508 427 476T511 389T541 270Q541 260 541 249T539 223H153Q158 151 200 114T299 76Q344 76 374 96T420 152H526Q506
82 447 35T299 -12ZM299 421Q246 421 205 390T155 295H435Q432 353 394 387T299 421ZM157 547V626L298 707L440 626V547L298 630L157 547Z" />
<glyph unicode="&#xeb;" glyph-name="edieresis" horiz-adv-x="584" d="M299 -12Q226 -12 170 20T81 111T49 246Q49 324 80 383T168 475T300 508Q373 508 427 476T511 389T541 270Q541 260 541 249T539 223H153Q158 151 200 114T299 76Q344 76 374 96T420 152H526Q506
82 447 35T299 -12ZM299 421Q246 421 205 390T155 295H435Q432 353 394 387T299 421ZM383 568Q360 568 344 584T327 623Q327 647 343 663T383 679Q406 679 422 663T438 623Q438 600 422 584T383 568ZM213 568Q189 568 173 584T157 623Q157 647 173 663T213 679Q236
679 252 663T269 623Q269 600 253 584T213 568Z" />
<glyph unicode="&#xec;" glyph-name="igrave" horiz-adv-x="240" d="M67 0V496H173V0H67ZM424 537L206 649V737L424 613V537Z" />
<glyph unicode="&#xed;" glyph-name="iacute" horiz-adv-x="240" d="M67 0V496H173V0H67ZM92 537V613L310 737V649L92 537Z" />
<glyph unicode="&#xee;" glyph-name="icircumflex" horiz-adv-x="240" d="M67 0V496H173V0H67ZM235 547V626L376 707L518 626V547L376 630L235 547Z" />
<glyph unicode="&#xef;" glyph-name="idieresis" horiz-adv-x="240" d="M67 0V496H173V0H67ZM462 568Q439 568 423 584T406 623Q406 647 422 663T462 679Q485 679 501 663T517 623Q517 600 501 584T462 568ZM292 568Q268 568 252 584T236 623Q236 647 252 663T292
679Q315 679 331 663T348 623Q348 600 332 584T292 568Z" />
<glyph unicode="&#xf0;" glyph-name="eth" horiz-adv-x="636" d="M315 -12Q237 -12 177 22T83 115T49 246Q49 321 83 379T175 471T308 505Q351 505 392 491T468 445Q440 520 389 588L258 544V611L344 640Q315 671 281 700H383Q403 684 420 666L547 709V641L467
614Q527 539 557 454T587 280Q587 192 551 127T453 25T315 -12ZM318 78Q360 78 397 98T456 157T479 247Q479 299 457 336T397 394T318 415Q275 415 239 395T180 337T157 247Q157 195 179 157T238 99T318 78Z" />
<glyph unicode="&#xf1;" glyph-name="ntilde" horiz-adv-x="590" d="M67 0V496H161L169 409Q192 455 236 481T339 508Q429 508 480 452T532 285V0H427V274Q427 418 309 418Q250 418 212 376T173 256V0H67ZM373 550Q346 550 327 561T292 584T255 596Q218 596 212
551H153Q162 609 189 636T259 664Q286 664 305 653T340 630T378 618Q395 618 406 629T421 663H480Q472 606 444 578T373 550Z" />
<glyph unicode="&#xf2;" glyph-name="ograve" horiz-adv-x="599" d="M299 -12Q228 -12 172 20T82 111T49 248Q49 326 82 384T173 475T300 508Q371 508 427 476T517 385T551 248Q551 170 518 112T427 21T299 -12ZM299 79Q337 79 369 98T422 154T442 248Q442 304
423 341T371 398T300 417Q262 417 230 398T177 342T157 248Q157 192 177 155T229 98T299 79ZM348 537L130 649V737L348 613V537Z" />
<glyph unicode="&#xf3;" glyph-name="oacute" horiz-adv-x="599" d="M299 -12Q228 -12 172 20T82 111T49 248Q49 326 82 384T173 475T300 508Q371 508 427 476T517 385T551 248Q551 170 518 112T427 21T299 -12ZM299 79Q337 79 369 98T422 154T442 248Q442 304
423 341T371 398T300 417Q262 417 230 398T177 342T157 248Q157 192 177 155T229 98T299 79ZM272 537V613L490 737V649L272 537Z" />
<glyph unicode="&#xf4;" glyph-name="ocircumflex" horiz-adv-x="599" d="M299 -12Q228 -12 172 20T82 111T49 248Q49 326 82 384T173 475T300 508Q371 508 427 476T517 385T551 248Q551 170 518 112T427 21T299 -12ZM299 79Q337 79 369 98T422 154T442 248Q442
304 423 341T371 398T300 417Q262 417 230 398T177 342T157 248Q157 192 177 155T229 98T299 79ZM159 547V626L300 707L442 626V547L300 630L159 547Z" />
<glyph unicode="&#xf5;" glyph-name="otilde" horiz-adv-x="599" d="M299 -12Q228 -12 172 20T82 111T49 248Q49 326 82 384T173 475T300 508Q371 508 427 476T517 385T551 248Q551 170 518 112T427 21T299 -12ZM299 79Q337 79 369 98T422 154T442 248Q442 304
423 341T371 398T300 417Q262 417 230 398T177 342T157 248Q157 192 177 155T229 98T299 79ZM357 550Q330 550 311 561T276 584T239 596Q202 596 196 551H137Q146 609 173 636T243 664Q270 664 289 653T324 630T362 618Q379 618 390 629T405 663H464Q456 606 428
578T357 550Z" />
<glyph unicode="&#xf6;" glyph-name="odieresis" horiz-adv-x="599" d="M299 -12Q228 -12 172 20T82 111T49 248Q49 326 82 384T173 475T300 508Q371 508 427 476T517 385T551 248Q551 170 518 112T427 21T299 -12ZM299 79Q337 79 369 98T422 154T442 248Q442
304 423 341T371 398T300 417Q262 417 230 398T177 342T157 248Q157 192 177 155T229 98T299 79ZM386 568Q363 568 347 584T330 623Q330 647 346 663T386 679Q409 679 425 663T441 623Q441 600 425 584T386 568ZM216 568Q192 568 176 584T160 623Q160 647 176 663T216
679Q239 679 255 663T272 623Q272 600 256 584T216 568Z" />
<glyph unicode="&#xf7;" glyph-name="divide" horiz-adv-x="532" d="M266 385Q236 385 217 404T197 451Q197 479 216 498T266 518Q296 518 315 499T334 451Q334 424 315 405T266 385ZM59 246V335H473V246H59ZM266 63Q236 63 217 82T197 129Q197 157 216 176T266
196Q296 196 315 177T334 129Q334 102 315 83T266 63Z" />
<glyph unicode="&#xf8;" glyph-name="oslash" horiz-adv-x="592" d="M36 0L102 76Q75 109 60 152T45 248Q45 326 78 384T169 475T296 508Q377 508 439 466L465 496H555L490 420Q516 387 531 344T547 248Q547 170 514 112T423 21T295 -12Q215 -12 153 30L127 0H36ZM148
248Q148 219 153 195T168 152L380 397Q344 423 296 423Q257 423 223 404T169 345T148 248ZM295 73Q335 73 368 92T423 151T444 248Q444 277 439 300T424 344L212 99Q248 73 295 73Z" />
<glyph unicode="&#xf9;" glyph-name="ugrave" horiz-adv-x="590" d="M250 -12Q160 -12 109 44T57 211V496H163V222Q163 78 281 78Q340 78 378 120T416 240V496H522V0H428L420 87Q397 41 353 15T250 -12ZM335 537L117 649V737L335 613V537Z" />
<glyph unicode="&#xfa;" glyph-name="uacute" horiz-adv-x="590" d="M250 -12Q160 -12 109 44T57 211V496H163V222Q163 78 281 78Q340 78 378 120T416 240V496H522V0H428L420 87Q397 41 353 15T250 -12ZM240 537V613L458 737V649L240 537Z" />
<glyph unicode="&#xfb;" glyph-name="ucircumflex" horiz-adv-x="590" d="M250 -12Q160 -12 109 44T57 211V496H163V222Q163 78 281 78Q340 78 378 120T416 240V496H522V0H428L420 87Q397 41 353 15T250 -12ZM146 547V626L287 707L429 626V547L287 630L146 547Z" />
<glyph unicode="&#xfc;" glyph-name="udieresis" horiz-adv-x="590" d="M250 -12Q160 -12 109 44T57 211V496H163V222Q163 78 281 78Q340 78 378 120T416 240V496H522V0H428L420 87Q397 41 353 15T250 -12ZM373 568Q350 568 334 584T317 623Q317 647 333 663T373
679Q396 679 412 663T428 623Q428 600 412 584T373 568ZM203 568Q179 568 163 584T147 623Q147 647 163 663T203 679Q226 679 242 663T259 623Q259 600 243 584T203 568Z" />
<glyph unicode="&#xfd;" glyph-name="yacute" horiz-adv-x="577" d="M125 -220L244 41H215L19 496H134L286 129L445 496H557L237 -220H125ZM242 537V613L460 737V649L242 537Z" />
<glyph unicode="&#xfe;" glyph-name="thorn" horiz-adv-x="640" d="M67 -220V720H173V419Q197 454 239 481T347 508Q419 508 474 474T560 381T592 247Q592 172 561 114T474 22T346 -12Q288 -12 244 11T173 76V-220H67ZM328 80Q396 80 440 126T484 248Q484 297
464 335T409 394T328 416Q260 416 217 369T173 248Q173 173 216 127T328 80Z" />
<glyph unicode="&#xff;" glyph-name="ydieresis" horiz-adv-x="577" d="M125 -220L244 41H215L19 496H134L286 129L445 496H557L237 -220H125ZM375 568Q352 568 336 584T319 623Q319 647 335 663T375 679Q398 679 414 663T430 623Q430 600 414 584T375 568ZM205
568Q181 568 165 584T149 623Q149 647 165 663T205 679Q228 679 244 663T261 623Q261 600 245 584T205 568Z" />
<glyph unicode="&#x2013;" glyph-name="endash" horiz-adv-x="645" d="M56 246V334H588V246H56Z" />
<glyph unicode="&#x2014;" glyph-name="emdash" horiz-adv-x="857" d="M56 246V334H801V246H56Z" />
<glyph unicode="&#x2018;" glyph-name="quoteleft" horiz-adv-x="238" d="M31 465L127 700H201L145 465H31Z" />
<glyph unicode="&#x2019;" glyph-name="quoteright" horiz-adv-x="239" d="M37 465L93 700H208L111 465H37Z" />
<glyph unicode="&#x201a;" glyph-name="quotesinglbase" horiz-adv-x="212" d="M8 -117L64 118H178L82 -117H8Z" />
<glyph unicode="&#x201c;" glyph-name="quotedblleft" horiz-adv-x="413" d="M31 465L127 700H201L145 465H31ZM206 465L302 700H376L320 465H206Z" />
<glyph unicode="&#x201d;" glyph-name="quotedblright" horiz-adv-x="413" d="M212 466L268 701H382L285 466H212ZM37 466L93 701H208L111 466H37Z" />
<glyph unicode="&#x201e;" glyph-name="quotedblbase" horiz-adv-x="387" d="M8 -117L64 118H178L82 -117H8ZM184 -117L239 118H354L258 -117H184Z" />
<glyph unicode="&#x2022;" glyph-name="bullet" horiz-adv-x="369" d="M184 206Q149 206 120 223T74 268T56 333Q56 369 73 398T120 444T184 461Q220 461 249 444T295 398T312 333Q312 297 295 269T249 223T184 206Z" />
<glyph unicode="&#x2039;" glyph-name="guilsinglleft" horiz-adv-x="289" d="M137 120L43 295L137 470H239L142 295L239 120H137Z" />
<glyph unicode="&#x203a;" glyph-name="guilsinglright" horiz-adv-x="289" d="M50 120L147 295L50 470H152L246 295L152 120H50Z" />
</font>
</defs>
</svg>
